domingo, 13 de agosto de 2017

GoT S07E05 "Eastwatch/Guardiaoriente"- Discusión e Impresiones



En nada de tiempo presenciaremos el estreno del 5 capitulo de esta corta temporada de Game of Thrones titulado Eastwatch o Guardiaoriente. el capitulo tendrá una duración de 59 minutos, un avance a los escasos 50 del pasado Spoils of War, que aunque corto, fue satisfactorio....sin segundas intenciones digo esto.


Solo quedan dos episodios para el fin de la temporada, una temporada que les aseguro quedara en la memoria de fanáticos y haters por igual, para algunos por lo malo y otros por lo bueno. en estos días pude presenciar todo tipo de opiniones sobre la serie y una radicalización en la polarización de las opiniones que desde hacia años no veía en las discusiones de ninguna otra serie de Internet, ni en Lost y ni en Breaking Bad. Eso a las claras nos da la importancia del show y se que no descubro América al comentarles eso. Acá mismo en el blog la entrada que criticaba las incoherencias del episodio pasado levanto una serie de respuestas airadas, y ni les cuento el tenor de muchas de las respuestas que recibí en otros sitios donde coloque la entrada. Esta entrada tiene el récord del blog con casi 30.000 visitas, la mayoría de ellas en solo un día. Todo un récord para un sitio muy nuevo. solo 8 meses de actividad y casi 200.000 visitas.

Y el episodio de hoy, créanme , sera igual de polémico, en realidad lo que queda de temporada, los dos episodios remanentes, con sus 71 y 81 minutos respectivamente serán examinados de todos los ángulos y alabados y criticados por igual. no los vi, pero si leí todas las filtraciones y les aseguro que habrá mucha tela para cortar, Internet arderá semanas, HBO registrara récords de audiencia y de descargas ilegales. Los actores serán objetos de innumerables entrevistas y las ventas de los libros seguirán disparándose, mas aun cuando Martin aun no edita el sexto "Vientos de Invierno".

Y miren la locura que desata la serie, el actor Jerome Flynn que interpreta a Bronn, le relato al sitio Making the GoT, que el cartero no le habla...porque el fue el que disparo contra Drogon... 

De paso les dejo la "Beautiful Death" de "Spoils of War". Increíble.



Así que denle al teclado y haznos saber tu opinión. No se corten y déjennos saber que opinan. Todos son bienvenidos.

Ah, antes de la emisión del episodio, tapar los spoilers por favor, una vez comenzado, se pueden hacer los comentarios sin taparlos.

Transmisión en vivo:




Episodio Online- Cortesia Azanime.info


Torrent

Capturas:

Media Info:

Video
ID                                       : 1
Format                                   : AVC
Format/Info                              : Advanced Video Codec
Format profile                           : Main@L3.2
Format settings, CABAC                   : Yes
Format settings, ReFrames                : 4 frames
Codec ID                                 : V_MPEG4/ISO/AVC
Duration                                 : 59mn 51s
Bit rate mode                            : Variable
Bit rate                                 : 2 754 Kbps
Maximum bit rate                         : 3 510 Kbps
Width                                    : 1 280 pixels
Height                                   : 720 pixels
Display aspect ratio                     : 16:9
Frame rate mode                          : Constant
Frame rate                               : 23.976 (24000/1001) fps
Color space                              : YUV
Chroma subsampling                       : 4:2:0
Bit depth                                : 8 bits
Scan type                                : Progressive
Bits/(Pixel*Frame)                       : 0.125
Stream size                              : 1.15 GiB (93%)
Default                                  : Yes
Forced                                   : No

Audio
ID                                       : 2
Format                                   : AAC
Format/Info                              : Advanced Audio Codec
Format profile                           : LC
Codec ID                                 : A_AAC
Duration                                 : 59mn 51s
Bit rate                                 : 192 Kbps
Channel(s)                               : 2 channels
Channel positions                        : Front: L R
Sampling rate                            : 48.0 KHz
Frame rate                               : 46.875 fps (1024 spf)
Compression mode                         : Lossy
Delay relative to video                  : -41ms
Stream size                              : 81.1 MiB (6%)
Default                                  : Yes
Forced                                   : No




No hay comentarios.:

Publicar un comentario