domingo, 27 de agosto de 2017

GoT S07E07 "The Dragon and the Wolf"- Discusión e Impresiones



GoT S07E07 "The Dragon and the Wolf"- Discusión e Impresiones

PAÍS DE ORIGEN: EUA/GB/
AÑO DE PRODUCCIÓN: 2017
GÉNERO: Aventura, Drama, Fantasía/
DURACIÓN: 81 minutes.
CENSURA: C

ELENCO
Hafþór Júlíus Björnsson, Kit Harington, Peter Dinklage., Nikolaj Coster-Waldau, Emilia Clarke, Alfie Allen, Pilou Asbæk, Lena Headey, John Bradley, Jacob Anderson,
Gwendoline Christie, Liam Cunningham, Nathalie Emmanuel

Director: Jeremy Podeswa, Director of Photography: Gregory Middleton




El final de la temporada ha llegado, ese momento tan temido por muchos y esperado por todos. Con una duración de más de 80 minutos, el episodio más largo de toda la serie promete de todo, entre rumores de filtraciones nunca concretadas por el grupo Mr. Smith. Uno eventualmente termina preguntándose si todo no fue un aceitada jugada de marketing para elevar los ratings, mi opinión personal es que si lo fue. HBO es el gran ganador de este juego, todos los episodios tuvieron altísimos ratings, incluso los filtrados.

La mala noticia es que posiblemente los fans de la serie debamos esperar un largo tiempo hasta que se estrene la última temporada, se habló de estrenarla incluso en 2019 debido a los tiempos de preproducción y postproducción, más cercanos a una película que a una serie. Yo incluso acaricio la idea de que el final de la próxima temporada será estrenada directamente en cines, lo cual redundaría en un espectáculo visual más grandioso aun. Pero esto es más un deseo que algo real.

Lo real es que esta noche veremos muchos secretos revelados. Los que leyeron las filtraciones saben que son certeras. Y tenemos el outline de este último episodio, con detalles sobre las escenas. Sabemos cómo será todo y tenemos una opinión formada al respecto.

En mi caso, es una opinión ambivalente. Deploro los cambios introducidos, lamento ver como tramas y personajes fueron reducidos a esquemas y caricaturas de los mismos. Incoherencias increíbles, lamentables, una narración que dista de ser fluida y coherente consigo mismo suplida con parafernalia audiovisual de primer nivel.

Y por el otro lado, el televidente ávido de espectáculo puro y sin demasiados problemas. Es imposible para mi ponerme de un lado, en mi viven, de manera contradictoria, ambas expresiones, por un lado la puteo a la serie y por otro lado la disfruto...por favor que alguien consiga un chaleco de fuerza!!!!!

Así que sin más preámbulos, les dejo esta entrada donde iniciaremos el debate previo, donde los que sabemos cómo viene la mano, debemos ocultar los spoilers con los comandos de disqus que conocemos, eso solo hasta el inicio del episodio, una vez comenzado se podrá comentar sin spoilers...


En el contenido escondido hay puros spoilers, así que atentos, no hagan click en "Mostrar" si no tienen el corazón valiente.







Game.of.Thrones.S07E07.The.Dragon.and.the.Wolf.1080p.AMZN.WEBRip.DDP5.1.x264-GoT



Video
ID : 1
Format : AVC
Format/Info : Advanced Video Codec
Format profile : High@L4
Format settings, CABAC : Yes
Format settings, ReFrames : 4 frames
Codec ID : V_MPEG4/ISO/AVC
Duration : 1h 21mn
Bit rate mode : Variable
Bit rate : 7 710 Kbps
Maximum bit rate : 15.0 Mbps
Width : 1 920 pixels
Height : 1 080 pixels
Display aspect ratio : 16:9
Frame rate mode : Constant
Frame rate : 23.976 (24000/1001) fps
Color space : YUV
Chroma subsampling : 4:2:0
Bit depth : 8 bits
Scan type : Progressive
Bits/(Pixel*Frame) : 0.155
Stream size : 4.38 GiB (92%)
Default : Yes
Forced : No
Color range : Limited
Color primaries : BT.709
Transfer characteristics : BT.709
Matrix coefficients : BT.709

Audio
ID : 2
Format : E-AC-3
Format/Info : Audio Coding 3
Format settings, Endianness : Big
Codec ID : A_EAC3
Duration : 1h 21mn
Bit rate mode : Constant
Bit rate : 640 Kbps
Channel(s) : 6 channels
Channel positions : Front: L C R, Side: L R, LFE
Sampling rate : 48.0 KHz
Frame rate : 187.500 fps (256 spf)
Compression mode : Lossy
Delay relative to video : 27ms
Stream size : 372 MiB (8%)
Language : English
Default : Yes
Forced : No

Text
ID : 3
Format : UTF-8
Codec ID : S_TEXT/UTF8
Codec ID/Info : UTF-8 Plain Text
Duration : 1h 20mn
Bit rate : 51 bps
Count of elements : 958
Stream size : 30.4 KiB (0%)
Language : English
Default : No
Forced : No

Menu
00:00:00.000 : en:Ratings
00:00:02.379 : enreviously On
00:01:33.379 : en:Studio Logo
00:01:39.379 : en:Opening Credits
00:03:27.379 : en:Bronn oversees the fortifications
00:06:17.379 : en:Tyrion and Jon Snow sail to King\'s Landing
00:07:34.379 : en:Meeting at the dragonpit
00:30:13.379 : en:Tyrion tries to sway he sister\'s choice.
00:37:11.379 : en:Cersei returns
00:41:18.379 : en:Littlefinger and Sansa talk about how dangerous Arya is
00:44:56.379 : en:Jon Snow and Daenerys prepare to mobilize
00:50:10.379 : en:Harrag confronts Theon
00:54:30.379 : en:There\'s no justice in the world, not unless we make it
01:00:38.379 : en:Cersei threatens Jaime
01:05:57.379 : en:Samwell speaks with Bran
01:12:19.379 : en:Three Blasts
01:20:05.379 : en:End Credits
01:21:21.379 : en:Inside the Episode




No hay comentarios.:

Publicar un comentario